#TITLE:Lune Noir;
#SUBTITLE:;
#ARTIST:Sonitus Vir;
#TITLETRANSLIT:Lune Noir;
#SUBTITLETRANSLIT:;
#ARTISTTRANSLIT:Sonitus Vir;
#CREDIT:;
#BANNER:lune.png;
#BACKGROUND:lune-bg.png;
#LYRICSPATH:;
#CDTITLE:lune-cd.png;
#MUSIC:lune.ogg;
#OFFSET:2.180;
#SAMPLESTART:39.228;
#SAMPLELENGTH:20.000;
#SELECTABLE:NO;
#DISPLAYBPM:200.000;
#BPMS:0.000=110.030,4.000=-110.030,8.000=110.030,12.000=-110.030,16.000=110.030,20.000=-110.030,24.000=110.030,28.000=-110.030,32.000=110.030,36.000=-110.030,40.000=110.030,44.000=-110.030,48.000=110.030,52.000=-110.030,56.000=110.030,62.250=-110.030,66.250=110.030,70.250=-110.030,74.250=110.030,78.250=-110.030,82.250=110.030,86.250=-110.030,90.250=110.030,94.250=-110.030,98.250=110.030,102.250=-110.030,106.250=110.030,110.250=-110.030,114.250=110.030,120.375=-110.030,124.375=110.030,152.000=55.050,152.188=220.060,180.500=-110.030,184.500=110.030,188.500=-110.030,192.500=110.030,196.500=-110.030,200.500=110.030,204.500=-110.030,208.500=110.030,212.500=-110.030,216.500=110.030,220.500=-110.030,224.500=110.030,228.500=-110.030,232.500=110.030,236.500=220.050,268.000=55.030,268.150=440.100,269.000=110.030,276.000=50.030,276.273=220.060,277.000=110.030,285.000=220.060,291.000=441.020,291.600=110.030,292.000=441.020,292.700=110.030,293.000=220.060,301.000=110.030,314.000=220.060,316.000=110.030,329.000=-110.030,333.000=110.030,337.000=-110.030,341.000=110.030,345.000=-110.030,349.000=110.030,353.000=-110.030,357.000=110.030,361.000=-110.030,365.000=110.030,369.000=-110.030,373.000=110.030,377.000=-110.030,381.000=110.030,385.000=-110.030,389.000=110.030,393.000=-110.030,397.000=110.030,401.000=-110.030,405.000=110.030,409.000=-110.030,413.000=110.030,417.000=-110.030,421.000=-110.030,425.000=220.060,463.000=440.200,463.630=110.030,464.000=440.200,464.670=110.030,465.000=220.060;
#STOPS:4.000=2.280
,12.000=0.080
,20.000=0.080
,28.000=0.080
,36.000=0.080
,44.000=0.080
,52.000=0.080
,60.000=0.360
,62.250=2.380
,70.250=0.080
,78.250=0.080
,86.250=0.080
,94.250=0.080
,110.250=0.080
,118.250=0.360
,180.500=0.240
,188.500=0.080
,196.500=0.080
,204.500=0.080
,212.500=0.080
,220.500=0.080
,228.500=0.080
,236.500=0.220
,313.000=1.080
,329.000=0.040
,337.000=0.060
,345.000=0.060
,353.000=0.060
,361.000=0.320
,369.000=0.120
,377.000=0.140
,385.000=0.140
,393.000=0.140
,401.000=0.140
,409.000=0.080
,421.000=2.520
;
#BGCHANGES:;
// cache tags:
#FIRSTBEAT:4.250;
#LASTBEAT:500.000;
#SONGFILENAME:Songs/Music V.I.P ^_^/Lune Noir/lune.sm;
#HASMUSIC:1;
#HASBANNER:1;
#MUSICLENGTH:90.464;
// end cache tags

//---------------dance-single - Tony----------------
#NOTES:
     dance-single:
     Tony:
     Hard:
     16:
     1.000,1.000,1.000,0.862,1.000,713.000,269.000,78.000,348.000,166.000:
0000
0000
0000
0000
,
0000
0000
1111
1111
1111
1111
1111
1111
1111
1111
1111
1111
1111
0000
0000
0000
0000
0000
0000
0000
0000
0000
0000
0000
0000
0000
0000
0000
0000
0000
0000
0000
,
0000
0000
0000
0000
,
0000
0000
1111
1111
1111
1111
1111
1111
1111
1111
1110
1101
1111
0000
0000
0000
0000
0000
0000
0000
0000
0000
0000
0000
0000
0000
0000
0000
0000
0000
0000
0000
,
0000
0000
1111
1111
1111
1111
1011
1111
0111
1111
1110
1001
0110
0000
0000
0000
0000
0000
0000
0000
0000
0000
0000
0000
0000
0000
0000
0000
0000
0000
0000
0000
,
0000
0000
1111
1111
1111
1111
1011
1111
0111
1111
1110
0001
0100
0000
0000
0000
0000
0000
0000
0000
0000
0000
0000
0000
0000
0000
0000
0000
0000
0000
0000
0000
,
0000
0000
1111
1111
1011
1110
1011
1110
0111
1111
1110
0000
0000
0000
0000
0000
0000
0000
0000
0000
0000
0000
0000
0000
0000
0000
0000
0000
0000
0000
0000
0000
,
0000
0000
1111
1110
1011
1110
1011
1110
0101
1101
1010
0000
0000
0000
0000
0000
0000
0000
0000
0000
0000
0000
0000
0000
0000
0000
0000
0000
0000
0000
0000
0000
,
0000
0000
1111
1110
1011
1110
1011
1110
0101
1101
1010
0000
0000
0000
0000
0000
0000
0000
0000
0000
0000
0000
0000
0000
0000
0000
0000
0000
0000
0000
0000
0000
,
0000
0000
1111
1110
1011
1110
1011
0110
0001
1001
1000
0000
0000
0000
0000
0000
0000
0000
0000
0000
0000
0000
0000
0000
0000
0000
0000
0000
0000
0000
0000
0000
,
0000
0000
1111
1010
1011
0110
1011
0100
0001
1000
0000
0000
0000
0000
0000
0000
0000
0000
0000
0000
0000
0000
0000
0000
0000
0000
0000
0000
0000
0000
0000
0000
,
0000
0000
1011
0010
1011
0100
0010
1000
0100
0001
1000
0000
0000
0000
0000
0000
0000
0000
0000
0000
0000
0000
0000
0000
0000
0000
0000
0000
0000
0000
0000
0000
,
0000
0000
1001
0010
1010
0000
1010
0100
0001
1000
0000
0000
0000
0000
0000
0000
0000
0000
0000
0000
0000
0000
0000
0000
0000
0000
0000
0000
0000
0000
0000
0000
,
0000
0000
1001
0010
1010
0000
0010
0100
0001
0000
0000
0000
0000
0000
0000
0000
0000
0000
0000
0000
0000
0000
0000
0000
0000
0000
0000
0000
0000
0000
0000
0000
,
0000
0001
1010
0010
0001
0000
0000
0000
0000
0000
0000
0000
0000
0000
0000
0000
,
0000
0000
0001
0000
0010
0000
0100
0000
0000
0000
0000
0000
0000
0000
0000
0000
0000
0000
0000
0000
1111
1111
1111
1111
1111
1111
1111
1111
1111
1111
1111
0000
,
0000
0000
0000
0000
,
0000
0000
0000
0000
0000
0000
0000
0000
0000
0000
0000
0000
0000
0000
0000
0000
0000
0000
0000
0000
1111
1111
1111
1111
1111
1111
1111
1111
0111
1101
1011
0000
,
0000
0000
0000
0000
0000
0000
0000
0000
0000
0000
0000
0000
0000
0000
0000
0000
0000
0000
0000
0000
1111
1111
1111
1111
1101
1111
1110
1111
0111
0101
1010
0000
,
0000
0000
0000
0000
0000
0000
0000
0000
0000
0000
0000
0000
0000
0000
0000
0000
0000
0000
0000
0000
1111
1111
1111
1111
1101
1111
1110
1111
0111
0000
0000
0000
,
0000
0000
0000
0000
0000
0000
0000
0000
0000
0000
0000
0000
0000
0000
0000
0000
0000
0000
0000
0000
1111
1111
1101
0111
1101
0111
1110
1111
0111
0000
0000
0000
,
0000
0000
0000
0000
0000
0000
0000
0000
0000
0000
0000
0000
0000
0000
0000
0000
0000
0000
0000
0000
1111
0111
1101
0111
1101
0111
1010
1011
0101
0000
0000
0000
,
0000
0000
0000
0000
0000
0000
0000
0000
0000
0000
0000
0000
0000
0000
0000
0000
0000
0000
0000
0000
1111
0111
1101
0111
1101
0111
1010
1011
0101
0000
0000
0000
,
0000
0000
0000
0000
0000
0000
0000
0000
0000
0000
0000
0000
0000
0000
0000
0000
0000
0000
0000
0000
1111
0111
1101
0111
1101
0110
1000
1001
0001
0000
0000
0000
,
0000
0000
0000
0000
0000
0000
0000
0000
0000
0000
0000
0000
0000
0000
0000
0000
0000
0000
0000
0000
1111
0101
1101
0110
1101
0010
1000
0001
0000
0000
0000
0000
,
0000
0000
0000
0000
0000
0000
0000
0000
0000
0000
0000
0000
0000
0000
0000
0000
0000
0000
0000
0000
1101
0100
1101
0010
0101
0010
1000
0001
0000
0000
0000
0000
,
0000
0000
0000
0000
0000
0000
0000
0000
0000
0000
0000
0000
0000
0000
0000
0000
0000
0000
0000
0000
0101
0100
0101
0000
0101
0010
1000
0001
0000
0000
0000
0000
,
0000
0000
0000
0000
0000
0000
0000
0000
0000
0000
0000
0000
0000
0000
0000
0000
0000
0000
0000
0000
0101
0100
0101
0000
0100
0010
1000
0000
0000
0000
0000
0000
,
0000
0000
0000
0000
0000
0000
0000
0000
0000
0000
0100
0010
1000
0100
0000
0000
,
0000
0000
0000
0000
0000
0000
0000
0000
0000
0000
0100
0010
1000
0000
0000
0000
,
0000
0000
0000
0000
0000
0000
1111
0000
0000
0000
0000
0000
0000
0000
0000
0000
0000
0000
0000
0000
0001
0000
0100
0000
0101
0000
0000
0000
0000
0000
1000
0000
0000
0100
0000
0000
0010
0000
0001
0000
0100
0000
0010
0000
1000
0000
0000
0000
,
0000
0000
0000
0000
,
0000
0000
0000
0000
0000
0000
0110
0000
0000
0000
0000
0000
0000
0000
0000
0000
0000
0000
0000
0000
0001
0000
0100
0000
0101
0000
0000
0000
0000
0000
1000
0000
0000
0100
0000
0000
0010
0000
0001
0000
0100
0000
0010
0000
1000
0000
2002
0000
,
0000
0000
0000
0000
0000
0000
0000
0000
0000
0000
0000
0000
3013
0000
0000
0000
0000
0000
0000
0000
0000
0000
0000
0000
0000
0000
0000
0000
0000
0000
0000
0000
1010
0000
0000
0000
0000
0000
0000
0000
0000
0000
0000
0000
0000
0000
0000
0000
2002
0000
0000
0000
0000
0000
0000
0000
0000
0000
0000
0000
0000
0000
0000
0000
0000
0000
0000
0000
0000
0000
0000
0000
3113
0000
0000
0000
0000
0000
0000
0000
0000
0000
0000
0000
0000
0000
0000
0000
0000
0000
0000
0000
0000
0000
0000
0000
0000
0000
0000
0000
0000
0000
0000
0000
0000
0000
0000
0000
0001
0000
0000
0000
0000
0000
0010
0000
0000
0000
0000
0000
0200
0000
0000
0000
0000
0000
0000
0000
0000
0000
0000
0000
0000
0000
0000
0000
0000
0000
0000
0000
0000
0000
0000
0000
0000
0000
0000
0000
0000
0000
0000
0000
0000
0000
0000
0000
0000
0000
0000
0000
0000
0000
0000
0000
0000
0000
0000
0000
0000
0000
0000
0000
0000
0000
0000
0000
0000
0000
0000
0000
0000
0000
0000
0000
0000
0000
0000
0000
0000
0000
0000
0000
,
0300
0000
0000
0000
0100
0010
1000
0001
0100
0010
1000
0001
0220
0000
0000
0000
0330
0000
2200
0000
0000
0000
0000
0000
3311
0000
0000
0000
2002
0000
0000
0000
,
0000
0000
0000
0000
0000
3003
0000
0000
,
0000
0000
0000
0000
0000
0000
0000
0000
0000
0000
0000
0000
0000
0000
0000
0000
0000
0000
0000
0000
0000
0000
0000
0000
1000
0000
0000
0000
0000
0000
0000
0000
0000
0000
0000
0000
0100
0000
0000
0000
0000
0000
0000
0000
0000
0000
0000
0000
0010
0000
0000
0000
0000
0000
0000
0000
0001
0000
0000
0000
0000
0000
0000
0000
1000
0000
0000
0000
0000
0000
0000
0000
0100
0000
0000
0000
0000
0000
0000
0000
0000
0000
0000
0000
0000
0000
0000
0000
0000
0000
0000
0000
0000
0000
0000
0000
0000
0000
0000
0000
0000
0000
0000
0000
0000
0000
0000
0000
0100
0000
0000
0000
0000
0000
1000
0000
0000
0000
0000
0000
0100
0000
0000
0000
0000
0000
0000
0000
0000
0000
0000
0000
0000
0000
0000
0000
0000
0000
0000
0000
0000
0000
0000
0000
0010
0000
0000
0000
0000
0000
0000
0000
0001
0000
0000
0000
0000
0000
0000
0000
1000
0000
0000
0000
0000
0000
0000
0000
0100
0000
0000
0000
0000
0000
0000
0000
0000
0000
0000
0000
0000
0000
0000
0000
0000
0000
0000
0000
0000
0000
0000
0000
,
0110
0000
0001
0010
0001
0010
0001
0100
0001
0100
0010
1000
0100
0010
0001
0000
,
1001
1011
0100
1010
0001
0001
0100
0010
,
1000
0011
0100
0010
1000
0100
1000
0010
,
0001
1100
1000
0001
0100
0010
1000
0100
,
1000
0000
0011
0000
0100
0000
0001
0000
1000
0000
0010
0000
0100
0000
0001
0010
,
1000
1101
0100
0020
0001
2030
0100
3002
,
1000
0203
0001
0320
0001
2030
0100
3002
,
1000
0203
0001
0310
1000
0010
0100
0001
,
0010
0000
MMMM
0MM0
M00M
0MM0
MM00
0MM0
00MM
M0M0
0M00
00M0
0M00
M00M
0000
0000
,
0000
0000
MMMM
0MM0
M00M
0MM0
MM00
0MM0
00MM
M0M0
0M00
00M0
0M00
000M
0000
0000
,
0000
0000
MMMM
0MM0
M00M
0MM0
MM00
0MM0
00MM
M0M0
0M00
00M0
0000
000M
0000
0000
,
0000
0000
MMMM
0MM0
M00M
0MM0
MM00
0MM0
00MM
M0M0
0M00
0000
0000
000M
0000
0000
,
0000
0000
MMMM
0MM0
M00M
0MM0
MM00
0MM0
00MM
M0M0
0000
0000
0000
000M
0000
0000
,
0000
0000
MMMM
0MM0
M00M
0MM0
MM00
0MM0
00MM
M000
0000
0000
0000
000M
0000
0000
,
0000
0000
MMMM
0MM0
M00M
0MM0
MM00
0MM0
00M0
M000
0000
0000
0000
000M
0000
0000
,
0000
0000
MMMM
0MM0
M00M
0MM0
MM00
0M00
00M0
M000
0000
0000
0000
000M
0000
0000
,
0000
0000
MMM0
0MM0
M00M
0MM0
M000
0M00
00M0
M000
0000
0000
0000
000M
0000
0000
,
0000
0000
MM00
0MM0
M00M
0M00
M000
0000
00M0
M000
0000
0000
0000
000M
0000
0000
,
0000
0000
MM00
0MM0
M00M
0M00
M000
0000
00M0
M000
0000
0000
0000
000M
0000
0000
,
0000
0000
M000
0M00
000M
0M00
M000
0000
00M0
M000
0000
0000
0000
000M
0000
0000
,
0000
0000
M000
0M00
000M
0000
M000
0000
00M0
M000
0000
0000
0000
000M
0000
0000
,
0000
0000
0000
0M00
000M
0000
M000
0000
00M0
M000
0000
0000
0000
000M
0000
0000
,
0000
0000
1011
0100
0020
1030
0010
0100
,
2001
3010
0101
1000
1200
0310
0101
0010
,
0102
0000
1003
0000
1100
0000
0001
1000
0002
0000
0103
0000
0010
0000
1000
0000
,
1200
0310
0101
0010
2000
3001
0020
0000
,
2030
0000
0000
0000
3111
0000
0100
0010
2000
0000
3001
0000
0010
0000
0100
0000
,
0020
0130
1010
0001
0021
0130
1001
0010
,
0201
0000
1300
0000
1100
0000
0010
1000
0200
0000
0310
0000
1001
0000
0010
0000
,
0102
0013
1000
0010
0200
0310
1002
0000
,
0123
0000
0000
0000
0000
0000
0000
0000
0000
0000
0000
0000
1131
0000
0000
0000
0000
0000
0100
0000
0000
0010
0000
0000
1000
0000
0000
0000
0000
0000
0010
0000
0000
0000
0000
0000
0101
0000
0000
0000
0000
0000
1000
0000
0100
0000
0010
0000
,
0101
0000
0100
0000
1010
0000
0100
0010
0101
0000
0001
0010
1100
0000
0000
0000
,
0100
0000
0000
0000
0000
0000
0000
0000
0000
0000
0000
0000
1011
0000
0000
0000
0000
0000
0100
0000
0000
0010
0000
0000
0101
0000
0000
0000
0000
0000
0100
0000
0000
0000
0000
0000
1010
0000
0000
0000
0000
0000
0001
0000
0100
0000
0010
0000
,
1001
0000
0001
0000
0101
0000
0001
0010
1100
0000
1000
0100
0011
0001
0100
0010
,
1001
1000
1011
0100
0010
0001
1100
0010
,
1000
0001
0110
1000
0101
0010
0101
0000
,
1010
0000
0101
0010
0100
1000
1100
0010
,
0100
0010
0101
1000
0001
0010
1000
0100
,
0001
0010
1002
0013
0100
0010
0021
0100
,
0230
0000
0310
0000
0002
0000
0010
0000
0100
0000
0013
0100
1000
0000
1000
0000
,
0020
0000
0000
0000
0031
0000
0010
0100
1000
0000
0000
0000
0100
0000
0000
0000
2000
0000
0000
0000
3100
0000
0010
0000
0002
0000
0000
0000
0013
0000
0000
0000
,
2000
0000
0000
0000
0002
0000
0000
0000
0010
3003
0000
0000
0000
0000
0000
0000
1000
0000
0000
0000
0100
0000
0000
0000
0010
0000
0000
0000
0001
0000
0000
0000
,
1000
2000
0001
3100
0200
0010
0301
0010
,
0020
0000
0001
0000
2030
0000
3100
0010
0002
0000
0103
0000
0020
0000
1000
0000
,
2030
0000
0000
0000
0000
0000
0001
0000
0000
0000
0000
0000
3020
0000
0000
0000
0000
0000
0100
0000
0000
0031
0000
0000
1000
0000
0000
0100
0000
0000
0010
0000
0001
0000
1000
0000
0002
0000
0000
0000
0000
0000
0000
0000
0000
0000
0000
0000
,
0003
0000
0000
0000
,
0000
0M00
0000
0000
,
0000
0M00
0000
0000
,
0000
0MM0
0000
0000
,
0000
0MM0
0000
0000
,
0000
MMM0
0000
0000
,
0000
MMM0
0000
0000
,
0000
0000
0000
0000
0000
0000
0000
0000
MMM0
0000
0000
00M0
0000
0000
0000
0000
0000
0000
0000
0000
0000
0000
0000
0000
0000
0000
0000
0000
0000
0000
0000
0000
,
0000
0000
0000
0000
0000
0000
0000
0000
MMM0
0000
0000
00M0
0000
0000
0000
0000
0000
0000
0000
0000
0000
0000
0000
0000
0000
0000
0000
0000
0000
0000
0000
0000
,
0000
0000
0000
0000
0000
0000
0000
0000
MMM0
0000
0000
00M0
0000
0000
M000
0000
0000
0000
0000
0000
0000
0000
0000
0000
0000
0000
0000
0000
0000
0000
0000
0000
,
0000
0000
0000
0000
0000
0000
0000
0000
MMM0
0000
0000
00M0
0000
0000
M000
0000
0000
0000
0000
0000
0000
0000
0000
0000
0000
0000
0000
0000
0000
0000
0000
0000
,
0000
0000
0000
0000
0000
0000
0000
0000
MMM0
0000
0000
00M0
0000
0000
M000
0000
000M
0000
0000
0000
0000
0000
0000
0000
0000
0000
0000
0000
0000
0000
0000
0000
,
0000
0000
0000
0000
0000
0000
0000
0000
MMM0
0000
0000
00M0
0000
0000
M000
0000
000M
0000
0000
0000
0000
0000
0000
0000
0000
0000
0000
0000
0000
0000
0000
0000
,
0000
0000
0000
0000
0000
0000
0000
0000
MMM0
0000
0000
00M0
0000
0000
M000
0000
000M
0000
0M00
0000
0000
0000
0000
0000
0000
0000
0000
0000
0000
0000
0000
0000
,
0000
0000
0000
0000
0000
0000
0000
0000
MMM0
0000
0000
00M0
0000
0000
M000
0000
000M
0000
0M00
0000
0000
0000
0000
0000
0000
0000
0000
0000
0000
0000
0000
0000
,
0000
0000
0000
0000
0000
0000
0000
0000
MMM0
0000
0000
00M0
0000
0000
M000
0000
000M
0000
0M00
0000
00M0
0000
0000
0000
0000
0000
0000
0000
0000
0000
0000
0000
,
0000
0000
0000
0000
0000
0000
0000
0000
MMM0
0000
0000
00M0
0000
0000
M000
0000
000M
0000
0M00
0000
00M0
M000
0000
0000
0000
0000
0000
0000
0000
0000
0000
0000
,
0000
0000
0000
0000
0000
0000
0000
0000
MMM0
0000
0000
00M0
0000
0000
M000
0000
000M
0000
0M00
0000
00M0
M000
0000
0000
0000
0000
0000
0000
0000
0000
0000
0000
,
0000
0000
0000
0000
0000
0000
0000
0000
MMM0
0000
0000
00M0
0000
0000
M000
0000
000M
0000
0M00
0000
00M0
M000
0000
0M00
0000
0000
0000
0000
0000
0000
0000
0000
,
0000
0000
0000
0000
0000
0000
0000
0000
MMM0
0000
0000
00M0
0000
0000
M000
0000
000M
0000
0M00
0000
00M0
M000
0000
0M00
0000
0000
0000
0000
0000
0000
0000
0000
,
0000
0000
0000
0000
0000
0000
0000
0000
MMM0
0000
0000
00M0
0000
0000
M000
0000
000M
0000
0M00
0000
00M0
M000
0000
0M00
0000
0000
000M
0000
0000
0000
0000
0000
,
0000
0000
0000
0000
0000
0000
0000
0000
MMM0
0000
0000
00M0
0000
0000
M000
0000
000M
0000
0M00
0000
00M0
M000
0000
0M00
0000
0000
000M
0000
0000
0000
0000
0000
,
0000
0000
0000
0000
0000
0000
0000
0000
MMM0
0000
0000
00M0
0000
0000
M000
0000
000M
0000
0M00
0000
00M0
M000
0000
0M00
0000
0000
000M
0000
0000
0000
0000
0000
,
0000
0000
0000
0000
,
0000
0000
0000
0000
,
0000
0000
0000
0000
,
0000
0000
1110
0010
2000
3010
0101
0001
,
1020
0130
1001
0010
1200
0310
0101
0001
,
2010
0000
3100
0000
1100
0000
0010
0001
0020
0000
0130
0000
1010
0000
0001
0000
,
0201
0310
1000
0010
0100
0001
0002
0000
,
0203
0000
1311
0100
0020
0130
1010
0001
,
0200
0310
1000
0001
1020
0130
1010
0001
,
0012
0000
1103
0000
0110
0000
0010
0100
2000
0000
3001
0000
1010
0000
0100
0000
,
0020
1030
0010
0100
0020
1030
2000
0000
,
3020
0000
0000
0000
1131
0010
0100
1000
0010
0000
0100
0000
0100
0010
0100
0010
,
0100
0000
0010
0000
0100
0010
0001
0010
1000
0000
0100
0000
1010
0000
0001
0000
,
0100
0010
0100
0000
1010
0100
0001
0010
0001
0000
0100
0000
0011
0000
1000
0000
,
0010
0100
1010
0001
1000
0010
0102
0000
,
0203
0000
0000
0000
1311
0100
0010
0100
1000
0001
1000
0100
0010
1000
0010
0100
,
0001
0010
0100
0010
0001
1000
0001
0010
0100
0010
1000
0010
0100
0010
0100
0001
,
1000
0100
0010
0100
1000
0001
1000
0100
0010
0001
0010
0100
0010
0001
1000
0100
,
0010
0100
0001
0010
0100
0010
0100
1000
0100
0010
0100
0010
1101
0000
0000
0000
,
2222
0000
0000
0000
,
3333
0000
0000
0000
;
